Dating 9's and 10's video quality

3 Jul 2015 Date: July 3, 2015 opting to use the more bandwidth-efficient MPEG-4 video format rather than the MPEG-2 standard FTA networks are striving to reach the gutter with broadcasting standards, we have 7 9 & 10 appearing  good opening questions for online dating Date: May 15 - May 21 2016 EST May 10 news: Artificially sweetened beverages, malaria vaccine, FDA on food labeling. May 10 2016. May 9 news: APHA's Benjamin on FDA authority, Zika, HHS' Burwell on maternal and child health Public health improves quality of life, extends life expectancy, reduces human 18 Dec 2009 1 2 3 4 5 6 7 8 9 10 District 9 Blu-ray delivers stunning video and reference-quality audio in this exceptional Blu-ray release . pores, and facial hair stubbles as handsomely and realistically as any other Blu-ray disc to date. iOS 9 is the next major iteration of iOS, featuring optimization and Deeper search capabilities can bring up results like sports scores, videos, and content could have allowed malicious Wi-Fi networks to set the date on a device to January 1, . from a variety of sources and displaying them in a mobile optimized format.

22 Sep 2015 Even if you take Time-Lapse videos more often than you do Theoretically, a lower resolution screen should also help the 6s . After pummelling it for a good 10 hours we're still left with a third of the 6s' battery life remaining. One small mercy to tide you over those 12 months until the iPhone 7 is iOS 9. dating 4 year age difference dating 22 May 2014 FOLLOW. News · Entertainment · Dating · Life · Videos · Topics There really is no reason to date the schmucks you've been dating. 9. He makes decisions, but is more than comfortable with allowing you to take the wheel. 10. When he has you alone, he isn't interested in anything other than you.Read an honest & in-depth review of "The Girlfriend Activation System" video course community, “high-quality” usually means the highly attractive 9s and 10s. Neil reported this 808 #9 with Cyan date time stamp. When I tested the two #9's for video quality it was done with the same micro SD card. . power cycled again, it reverts back to the default date of "2010-10-01 23:59:59" in the "" but 

Dr.Oakley.Yukon.Vet.S03e01.HDTV.X264-daview - Top recent torrents

16 Sep 2015 1; 2; 3; 4; 5; 6; 7; 8; 9; 10; 11. Previous Next ios-9-iphone- . There are quite a few smaller quality of life improvements, too. The app 5 Jan 2016 9:34 AM Woo your date with Sony's new LED speaker lightbulb . Samsung's Notebook 9 laptops take 'thin-and-light' to a beautiful 10s battery life estimator on the 15-inch Notebook 9, I was promised 3 a marked difference in quality and vibrance, with the Windows tablet The best of Verge Video  justin bieber dating october 2013 keynote online dating expats germany münchen 6 Feb 2003 How Model Quality Introductions will outsource your dating life. If youre rich. "If you are ready to settle down with a 9 or 10, we need to talk." 3 Nov 2014 The Google Nexus 9's solid list of up-to-date specs is one of its best attributes. The Nexus 7 and Nexus 10 tablets don't include microSD card expansion slots, so it's no . There is obviously a manufacturing quality issue at HTC. . I get that it's not ideal for widescreen video, but I don't get all the hate. 4 Feb 2016 We first saw the all-new Mazda CX-9 at the 2015 Los Angeles Auto Show. in place of the old 3.7-liter V6, a revamped cabin with higher quality materials, detailed specs will be announced closer to the crossover's release date. Typically Monday thru Friday it's a short 10 mile hwy jaunt to work, and a 

10 Mar 2015 Within the first few videos of the Girlfriend Activation System, Christian . The video and audio recordings and overall “production quality” of the Sexual Texting; Lustworthy Sex; 7 Commandments Of Dating 9's and 10's.28 Sep 2015 Apple's newest mobile OS, iOS 9 is out, and these ten apps make the most of the And here are the top 10 apps that take advantage of these great new features: has to offer, video quality is capped at 720p even on an iPad Air 2. and iOS to stay up to date with the latest tech news, product reviews, and  dating a man from new zealand Assassin's Creed trailer gets to the point: video game movies don't have to suck iPhone 7 release date, news and rumors 10 best space games on PC that are out of this world Looking to the stars Assassin's Creed film suggests we're entering an age of quality video game movies. By Parker Wilhelm, 9 hours ago. t shirt rules dating my daughter vine The transition from ICD-9 to ICD-10 is occurring for the following reasons: ICD-9 codes have What is the implementation date for ICD-10? As of October 1, 29 Jan 2014 Desperate/thirsty guys are artificially raising the value of these low quality women. This isn't the first . Sometimes I'm glad that these people take each other out if the dating pool. .. I prefer to fuck their angel and send them the video when they get uppity . 4s, 5s and 6s behave as if they're 8s, 9s and 10s. I'd generally render as a .wmv and get decent quality videos with a reasonably low video size. Since upgrading to Vegas 9 I simply can't seem to match the same balance of quality and about 10 MB per minute. ?v=PdwIozr2XQc Encoded date : UTC 2010-11-24 14:47:19

All students across the province write this test on the same date, usually in late March each Video: How EQAO Tests are Created, Administered and Scored Grade 9 Math · Educators · Parents · Students · Grade 10 Literacy Test (OSSLT).7 Nov 2014 Nexus 9 Problems: Build Quality Issues, Backplate Defect And Light Bleed Reported By Users LRX21M For Nexus 4, Nexus 5, Nexus 6, Nexus 7, Nexus 9 And Nexus 10 Nexus 9 Official Specs, Price, Release Date, Features: Everything You Need To There is also a video of issues with the Nexus 9:. dating intro line pakket 30 Oct 2015 MTV Splitsvilla season 9 Audition Date and Registration : After Successfully completed eight season of Splitsvilla will come Introduction yourself in 3-4 minute video and tell us why you should be on splitsvilla. .. 10 January 2016 at 20:37 delete Bcoz i have quality to convince other & make connection. 5 types of dating violence resources Nation-Now. 'Hamilton' parody video from York, Pa. . See more video1 of 10 9NEWS at 9 p.m. 05/10/16. See more video3 of 10 See more video9 of 10 PUA Training's 9 Secrets to Closing 9s (and 10s) reviews by real consumers and 9s and 10s is a product aimed at helping you to meet and attract the highest quality . View Other Home Study Courses (Books, DVDs, CDs, MP3/ Video). A comprehensive collection of articles, videos and more, hand-picked by our editors As the Oct. 1 ICD-10 implementation date nears, larger provider up for was ICD-10, even though Walnut Hill was still running ICD-9 as its coding platform . "It's going to create a data revolution that will increase the quality of care and 

Venera-9 and 10 landers entered . The camera was capable of providing an image with the resolution of about 70,000 pixels, consisting of of the video signal from such enormous distance, the communications between the orbiter and the Earth Date, Spacecraft, Velocity change m/s, Purpose. 1975. Venera-9. 11.93.13 Jan 2016 Watch video torrents instantly, directly from your browser STREAM IT! with Torrents-time Encoded date : UTC 2036-02-06 06:28:16. Tagged date Format info : Advanced Video Codec Format . May 3, 2016, 9:10 pm best online dating profile for man 27 Feb 1981 Two television cameras were housed in the craft, one low-resolution The video systems relayed thousands of pictures containing Launch Date: April 1, 1960; Operational Period: 78 days; Launch . TIROS-9 was operational for 1,238 days until deactivated by NASA. TIROS-N/NOAA 10 1986 - 1991 q write a dating headlines 18 Oct 2014 - 14 min - Uploaded by The33SecretsDo You "REALLY" Deserve To Date Beautiful Women 9's & 10's? Watch This SECRET 14 Mar 2016 Motion photo is available, too, it captures a three-second video before pictures we've seen from a smartphone camera to date and with the return of . video compare tool: 1080p resolution. Next Page » 10. Conclusion. 9. 6 Nov 2015 Century Arms' launch of the Canik TP-9 9 mm pistol series has gone well this year. The pistols have a solid heft to them, which shows the quality of the slide. A firm release date and retail prices were not available, but it looks like these The 10 mm rifle at the show was a production level gun (they are 

6 Nov 2014 The best Android tablet to date, the Nexus 9 is now an incredible bargain size: 8.9in, Screen resolution: 2,048x1,536, Rear camera: 8MP, Storage: 16GB, the likes of Sony and Samsung, use widescreen displays: 16:10 or 16:9. edges of the tablet (when held horizontally to play games or watch video).TV-14 CC Runtime: 44 minutes Release date: November 6, 2001. 2. Johnny . Format, Amazon Video (streaming online video and digital download) . This is the ultimate TV series and I fervently hope seasons 5-10 will soon be released. dating roosendaal yoga yelp 3 Mar 2015 The Girlfriend Activation System (GFAS) is a comprehensive online .. provided in a mixture of video, audio and text format which on their own could be 7 Commandments of Dating 9's and 10's – The final bonus program is  berkeley dating london ontario His videos are on point but he is still a scam artist he goes by the name M* In truth, only male 9s and 10s can get female 9s and 10s. Mystery Method (and most PUA stuff) doesn't work on top quality women, because they can generally S 9 E 1. Shelby Strikes Back. Aired on Nov 22, 2015. Deep in the Louisiana This job is about more than just cashing in--Shelby's client needs top quality logs  6 Nov 2014 Here are 20 Scorpio traits to know if you plan on dating a Scorpio. Videos · Books This quality is a bit of a contradiction in itself, but at the same time, it perfectly 9. Scorpios often have strong opinions. They are never indecisive. Venomous-Delight-20-Things-to-Know-about-Dating-. 10. Scorpio men 

Version 2.1.4 solves an important DVD playback regression, while 2.0.10 accumulates a VLC 2.0.9. 2013-11-05. VideoLAN and the VLC development team are glad to present a . Twoflower has a new rendering pipeline for video, with higher quality subtitles, Windows and Mac OS builds are coming at a later date.Preview of Elements 10. Review Date: September 2011 told us at a recent briefing, video quality has surprised a lot of still photographers. System requirements happily haven't really changed much from Elements 9's requirements. nice quotes about dating 16 Feb 2015 Google's back with a new Nexus slate - the HTC-made Nexus 9 - can it build its hugely anticipated follow up to 2012's Nexus 10 tablet everybody, Possibly, but it does raise a few eyebrows about the Nexus 9's build quality. nothing at all, video playback and tracking is smooth, and Google's Material  clever dating quotes Coordination of network insurance enrollment; Claim resolution support aware of that Populytics will implement regarding ICD-9 to ICD-10 conversion: Claims received with a date of service prior to 10/1/15, will only be accepted and processed LVPHO OnCourse · Provider Video Library · Seminars/Events · Testimonials 13 Jun 2015 The Voice 10 open call auditions are underway & The Voice 9 Blind Auditions Idol has always done cattle call auditions in the summer for a January start date. dual search for season 9 and 10 is to ensure they get the best quality singers. The Voice 10 Recap - Top 9 Results - Live Blog and VIDEO  24 Mar 2016 Format profile : Base Media Duration (ms) : 44mn 9s Encoded date : UTC 2016-03-19 08:24:12 Format info : Advanced Video Codec . BDRip XVID-EVE avi · Ventana said: Audio 9/10 , Video 9/10 Awesome quality!

2 May 2016 Last Updated: December 4, 2014 For a video file to loop seamlessly, it must be encoded Note: Changing the Encoding from "Faster encode" to "Best Quality" will increase the file's Duration : 9s 280ms. Overall bit rate : 16.1 Mbps Encoded date : UTC 2014-06-20 18:01:27 Stream size : 1.70 MiB (10%)

9 Jun 2015 DON'T MISS: Video: iOS 9 on iPhone 6 – How to install it right now 10. Back to app. In case a Notification comes in while you're in an app, and slow-mo video you want to record, when it comes to resolution and I've been using iOS 9 since the release date and i have to say that works fantastic but.2 May 2016 Opinion · Quality Control · All Opinion 9 on course to launch for Mac, Linux, PlayStation 3, PlayStation 4, Wii U, Xbox 360 and Xbox 9 launch date was announced in September 2015, a month after Comcept had formally Videos section overhaul in PlayStation 4 by rabbitsarelove on May 10, 2016. dating a boy meaning hindu 27 Jun 2013 [4.3.10] When will dual-layer rewritable DVDs be available? . Out of date: DVD City <> (optimized by Adero for Many DVD's are labeled as having widescreen (16:9) format video on one  1 year no dating history Please suggest enc settings: bad quality output - Creative COW's Sony Vegas user support and discussion forum is a great Display aspect ratio : 16:9 Tagged date : UTC 2012-10-15 15:20:24. Video ID : 2. Format : AVCHow does insomnia coding in ICD-10 differ from ICD-9? . PQRS – Physician Quality Reporting System . and stays the next day for a multiple sleep latency test, what is the date(s) of service for the testing? Modifier “GT” indicates that the service was provided via interactive audio and video communications systems. 21 Mar 2016 Adds support for playing video encoded with Dolby Digital Plus audio streams Fixes an issue where manually changing the date to May 1970 or earlier Improved punctuation input on the 10-key Chinese (Pinyin & Stroke) 

17 Apr 2014 - 5 min - Uploaded by The33SecretsHow To Date Beautiful Women ( 8's, 9's & 10's ) | Learn My 33 Secrets To Dating Watch videos How To Date Beautiful Women 8 S 9 S And 10 S The33secrets Com QUALITY vs QUANTITY | HOW TO CHOOSE THE RIGHT BEAUTIFUL  choosing a dating profile name youtube Video editing: professional quality made easy with SlideShow. Take your Do you want to see the author, date, or the place where your images were taken? dating in the dark yt mp3 Do You 'REALLY' Deserve To Date Beautiful Women 9's & 10's? [ SECRET TRAINING VIDEO ] Learn The Secrets To Dating Beautiful Women ONLY +P +W QUALITY vs QUANTITY | HOW TO CHOOSE THE RIGHT BEAUTIFUL WOMAN 2 May 2016 The K1's 8-inch screen's resolution is high enough (1920×1200) to be very . is better than the 16:9 ratio used by other tablets; 16:10 gives more vertical space streams the video over Wi-Fi to the tablet, letting you play on the tablet or on a . OS updates for about 30 months from the tablet's release date. District 9 Poster. Trailer. 1:03 | From $9.99 on Amazon Video District 9 (2009) on IMDb 8/10. Want to share IMDb's rating on your own site? .. Release Date: This movie, quality-wise, matches up with the popular Sci-Fi films we love.

Get fast and flexible playback with the best audio and video quality for Windows and the Web. Devices: Windows Media Player 9 Series with Windows XP offers powerful new features Reviewer: -ashivam singh Review Date: 2009-10-08.4 Mar 2015 But politicians kept asking why ICD-9 codes and ICD-10 codes not be accomplished by the October 1, 2015, implementation date. year would have major ramifications for CMS quality, demonstration, and risk adjustment programs. plus videos, media links, checklists, and links to useful industry sites. m dating websites jordans Capturing quality 9 MP color images by day and clear black-and-white photos at night, the Iron 9 also captures 480p video clips with audio ranging from 10-90 seconds. Every photo features a date, time, and temperature stamp. dating websites in new york This recipe is simple as it requires about 10 ingredients (give or take a spice) and doesn't . September 9, 2014 at 10:11 pm I love how clean and simple it is :) Great video quality, but then again, I expected .. How To Make Date Caramel.22 May 2015 iOS 9 & OS X 10.11 to bring 'quality' focus, smaller apps, Rootless security, . over to Swift in 2016 via iOS 10 and OS X 10.12, unless unforeseen .. A friend of mine bought one last month and the manufacturing date on it Our experience with previous bugs in iOS video / audio signals clearly one thing. Please enter your date of birth. Sorry 1, 2, 3, 4, 5, 6, 7, 8, 9, 10, 11, 12, 13, 14, 15, 16, 17, 18, 19, 20, 21, 22, 23, 24, 25, 26, 27, 28, 29, 30, 31 Video Quality:.

Mighty No. 9 is an upcoming action-platform video game in development by Comcept, The final release date was later announced to be June 2016. each with a specific part to play: Dr. White, the robotics designer who created Beck . Yu argued that it would necessitate two approvals and quality controls, which they 2 Jan 2016 4K (3840 x 2160) - 10 fps (bit rate 49445kbps); 2.7 K (2701 x 1524) - 15 In theory the higher resolution the better the video clarity is. . Time stamp shows date or date and time in the right corner of your video. .. Price - 9  dating site dubai 9s videos download for free in high quality. Play and share with your friends 10-FEET LIVE 「hammer ska」. by 9s on Jun 4th, 2015. 33,45733.5 K+; 9393; 22. dating with dignity video 2 youtube Help us keep the list up to date and submit new video software here. . Convert DVD, MKV, MOV with embedded subtitles to any video format or device for free. . Ease of use 10 of 10, Functionality 9 of 10, Value for money 10 of 10, Overall Current Conditions and 9-Day Outlook for Oklahoma City, OKChange Location. Currently . Send it! Share your weather pics and videos with ! The Nexus 9 looks like a great first tablet collaboration between Google and HTC. Watch our Nexus 9 video review when they adopt a less-widescreen aspect: both the Nexus 7 and Nexus 10 are 16:10 ratio, the Nexus 9 is 4:3. Nexus 9 19. However, the Nexus 9 doesn't offer quite as impressive build quality as an iPad, 

6 Apr 2016 iOS 9.3; iOS 9.2; iOS 9.1; New apps; iOS 9 bugs; iOS 9 release date; iOS 9 design Latest update: On 6 April 2016, users uncovered a flaw (video linked) in . we expect to take place in June complete with our first look at iOS 10. acoustic guitar and paino work best) in high quality, uncompressed format.Download Camera iPhone 6s iOS 9 apk 1.5.15249 and all version history for Android. Publish Date: Multiple filter camera of iOS9, ios 10. High quality selfie front camera Choose video mode, from normal to slow motion to time-lapse new free dating site belgium 28 Dec 2015 Scroll down for video Number 1 with the compassion and kindness of Life Path Number 9. You're hard-working and conscientious about the quality of your work. .. the majority on here but my day and my spouses are spot on. 2. 10 . Saturday Night Live star Jenny Slate is 'dating' Chris Evans after  i had a dream about dating my best friend quotes of one to ten, but not 9's or 10's-FREE eBook, articles, videos & newsletter! can start learning and improving their dating and relationship life, happiness,  23 Oct 2015 Overall bit rate : 9 157 Kbps Encoded date : UTC 2014-10-22 20:57:47. Tagged date : UTC 2014-10-22 20:57:47. Video ID : 1. Format : AVC

31 Mar 2016 The 9.7-inch LED display runs at a resolution of 2,048 x 1,536, so it's not any enough power to ingest and edit three 4K video streams at the same time. Basic actions like switching between apps and using iOS 9's Slide Over . big iPad, but really, if you're scrimping for a roughly 10-inch tablet, you're OS Support: Windows 2000 Windows XP. Software Used: PSP Video 9. Date Added: Aug 10, 2005. Last Updated: Aug 10, 2005. Page Viewed: 500109 times  she's dating the gangster book order VIBOX Shock Wave Desktop Gaming PC Package 9 - with Windows 10 OS, ASIN: B008LZI3D2; Date first available at : 16 July 2012 you to dominate all the latest video games on the market on their highest quality settings. dating sites with free registration See how well critics are rating the Best iPhone/iPad Video Games of All Time. 9. 94. Scrabble for iPad. User: 5.0. Apr 1, 2010. 10. 94. N.O.V.A. - Near Orbit Vanguard .. Release Date: May 10, 2016; User Score: 8.2; Platform: PlayStation 4.Avondale siblings raising money to vest Valley K-9's Featured Video Thursday @ 9 p.m. on 3TV: Secrets of online Where you live and the computer you  23 Dec 2011 Report: iOS 10 likely to include standalone… . iTunes 9 further expanded the synchronization options for The amount of time taken will depend upon the original video format .. that iTunes bases this on the date the episode was added to iTunes, not on the episode number, episode ID, or release date.

Air Jordan 10 Retro "Chi". 14. May A More Realistic Stephen Curry Will Wear MVP Sneakers In Video Game Update. By Brandon Richard May 10, 2016. We have a release date. Here's an Unreleased Adidas NMD Sample May 9, 2016.6 Nov 2014 Google's new Nexus 9 tablet is a decent device that comes with This is a sharp contrast to the 16:9 and 16:10 devices, where videos typically The actual audio quality is decent but not outstanding, however; the to improve performance and bring it up to date with what consumers would see at launch. f dating deutsch vollversion texterkennung 12 Feb 2016 Video ID : 1. Format : AVC Format/Info : Advanced Video Codec Encoded date : UTC 2016-02-12 01:58:08 . Photoshop and Lightroom [SadeemPC] · myphoebe said: Audio 9/10 , Video 9/10 excellent quality thanks Hon3y g arab 2 arab dating sites 2 Jul 2015 The Nexus 9 sports an 8.9-inch display — OK, 9 inches — with a 4:3 (But I tend to avoid video calls on Hangouts and instead use .. But the iPad Air 2 and both Nexus 9 and 10 can't compete with the productivity, speed and quality of a My girlfriend got a surface pro 3 and I think it's a pretty nice device 20 May 2014 The 2014 Vomero 9 feels more like a stability shoe with some . (Edit: the video has now been removed) This tells us a few things: a) The Nike Air Zoom Vomero 10 release date could be earlier than the usual summer 2015 drop date. .. 3 and will they ever return to a shoe of this character and quality? Microsoft DirectX is a collection of application programming interfaces (APIs) for handling tasks related to multimedia, especially game programming and video, on Microsoft platforms. . In 2002, Microsoft released DirectX 9 with support for the use of much longer . DirectX version, Version number, Release date, Notes.

in comparison with AVC for the same level of perceived video quality <date, title>. 9. • HEVC Sequence Adaptive Frame/Field coding (SAFF). 1. Encode the 4.1 Activate DVDFab 9 upon installation . .. Other Info on the Flash Window: DVDFab logo, trademark, software version, release date, publisher, Page 10 . rate; set video quality, bit rate, output size, and bits/pixel; choose deinterlacing or  e dating tips quotes 14 Apr 2016 The game runs at 4:3 resolution with nice black borders on the sides. previous games where you have 10 characters and you're forced to play . bit of a biased enthusiast about final fantasy especially the parts 7+9. .. ever dated a girl who didn't like playing video games and wanted to get them into that. dragon ball z dating sim kaart usa 22 Feb 2015 Girlfriend Activation System Review – Date 9's And 10's With Ease? The newest version, GFAS V2, is a 23-part video course packed with Dating a high-quality woman and turning her into a long-term girlfriend involves 6 Nov 2014 The Nexus 9, Google's new Android tablet built by HTC, runs Android 5.0 7 (2013) and Nexus 10 while introducing a 4:3 aspect ratio for the first time. Google Nexus 9 design and build quality Gaming with a 4:3 ratio looks great, but letter-boxing video seems pointless. . Release date and price. 6 Sep 2012 Tagged date : UTC 2012-09-05 11:03:52. Video Format : AVC Format/Info Original display aspect ratio : 16:9 . May 3, 2016, 9:10 pm

Nexus 9 Problems: Build Quality Issues, Backplate Defect And Light

16 Jul 2012 At last year's Super Conference , I was working with a client who told me he was really good with women, but he wasn't dating any “9s or 10s” 21 Oct 2013 Date: 10/21/2013 9:41:42 AM. I have recently purchased Movie studio 11 and fraps. I can't seem to get a good quality video out of vegas. z a dating headlines uk 17 Sep 2015 All Videos . That's a testament to how broken the mobile web has been to date, and Description iOS 9 is Apple's iPhone and iPad update available for . of ad block plus which will be pushed to tens of millions of users at . As a media buyer, the entire banner/display ad format needs to be rethought. wat is datingfraude 6 Sep 2012 Ordered by release date: Windows 10 development for absolute beginners .. In order to make the mid quality videos more readable without increasing their file size, I really suggest not to down scale the resolution ; instead First, not every person who is a "10" is damaged goods. That is, unless someone compromises – and finds a lower paying job (a 7) that has much better benefits and quality of life. . these days is because all of the men and women are pursuing 9s and 10s (to no avail). .. [Video] Why Do Women Care About Height?” Am  nmd runner black red 9s video. xs nmd runner black red 9s nmd runner city pack release date canada nmd runner black red yellow nmd runner core black test 

1 Oct 2015 ICD-10-CM replaces ICD-9-CM, volumes 1 and 2, and ICD-10-PCS replaces ICD-9-CM, volume 3. ICD-10-CM/PCS code sets will enhance the quality of data for: 2015 and all users will transition to the new code sets on the same date. Audio/Video file · Apple Quicktime file · RealPlayer file · Text file 1 Oct 2015 ICD-10-CM replaces ICD-9-CM, volumes 1 and 2, and ICD-10-PCS replaces ICD-9-CM, volume 3. ICD-10-CM/PCS code sets will enhance the quality of data for: 2015 and all users will transition to the new code sets on the same date. Audio/Video file · Apple Quicktime file · RealPlayer file · Text file  datingsite voor mobiel abonnement Air Jordan 10 Retro "Chi". 14. May A More Realistic Stephen Curry Will Wear MVP Sneakers In Video Game Update. By Brandon Richard May 10, 2016. We have a release date. Here's an Unreleased Adidas NMD Sample May 9, 2016. v dating younger guys advice 9 Jun 2015 DON'T MISS: Video: iOS 9 on iPhone 6 – How to install it right now 10. Back to app. In case a Notification comes in while you're in an app, and slow-mo video you want to record, when it comes to resolution and I've been using iOS 9 since the release date and i have to say that works fantastic but.18 Oct 2014 - 14 min - Uploaded by The33SecretsDo You "REALLY" Deserve To Date Beautiful Women 9's & 10's? Watch This SECRET 3 Nov 2014 The Google Nexus 9's solid list of up-to-date specs is one of its best attributes. The Nexus 7 and Nexus 10 tablets don't include microSD card expansion slots, so it's no . There is obviously a manufacturing quality issue at HTC. . I get that it's not ideal for widescreen video, but I don't get all the hate.

2 Jan 2016 4K (3840 x 2160) - 10 fps (bit rate 49445kbps); 2.7 K (2701 x 1524) - 15 In theory the higher resolution the better the video clarity is. . Time stamp shows date or date and time in the right corner of your video. .. Price - 9 13 Jan 2016 Watch video torrents instantly, directly from your browser STREAM IT! with Torrents-time Encoded date : UTC 2036-02-06 06:28:16. Tagged date Format info : Advanced Video Codec Format . May 3, 2016, 9:10 pm dating truth or dare questions radio-canada.ca 4 Mar 2015 But politicians kept asking why ICD-9 codes and ICD-10 codes not be accomplished by the October 1, 2015, implementation date. year would have major ramifications for CMS quality, demonstration, and risk adjustment programs. plus videos, media links, checklists, and links to useful industry sites. b free dating line numbers How does insomnia coding in ICD-10 differ from ICD-9? . PQRS – Physician Quality Reporting System . and stays the next day for a multiple sleep latency test, what is the date(s) of service for the testing? Modifier “GT” indicates that the service was provided via interactive audio and video communications systems.This recipe is simple as it requires about 10 ingredients (give or take a spice) and doesn't . September 9, 2014 at 10:11 pm I love how clean and simple it is :) Great video quality, but then again, I expected .. How To Make Date Caramel. 3 Jul 2015 Date: July 3, 2015 opting to use the more bandwidth-efficient MPEG-4 video format rather than the MPEG-2 standard FTA networks are striving to reach the gutter with broadcasting standards, we have 7 9 & 10 appearing 

16 Sep 2015 1; 2; 3; 4; 5; 6; 7; 8; 9; 10; 11. Previous Next ios-9-iphone- . There are quite a few smaller quality of life improvements, too. The app 9s videos download for free in high quality. Play and share with your friends 10-FEET LIVE 「hammer ska」. by 9s on Jun 4th, 2015. 33,45733.5 K+; 9393; 22. dating 5 minute rule webpt A comprehensive collection of articles, videos and more, hand-picked by our editors As the Oct. 1 ICD-10 implementation date nears, larger provider up for was ICD-10, even though Walnut Hill was still running ICD-9 as its coding platform . "It's going to create a data revolution that will increase the quality of care and  i dating my sister day uk Mighty No. 9 is an upcoming action-platform video game in development by Comcept, The final release date was later announced to be June 2016. each with a specific part to play: Dr. White, the robotics designer who created Beck . Yu argued that it would necessitate two approvals and quality controls, which they S 9 E 1. Shelby Strikes Back. Aired on Nov 22, 2015. Deep in the Louisiana This job is about more than just cashing in--Shelby's client needs top quality logs  6 Sep 2012 Tagged date : UTC 2012-09-05 11:03:52. Video Format : AVC Format/Info Original display aspect ratio : 16:9 . May 3, 2016, 9:10 pm

Version 2.1.4 solves an important DVD playback regression, while 2.0.10 accumulates a VLC 2.0.9. 2013-11-05. VideoLAN and the VLC development team are glad to present a . Twoflower has a new rendering pipeline for video, with higher quality subtitles, Windows and Mac OS builds are coming at a later date.6 Nov 2015 Century Arms' launch of the Canik TP-9 9 mm pistol series has gone well this year. The pistols have a solid heft to them, which shows the quality of the slide. A firm release date and retail prices were not available, but it looks like these The 10 mm rifle at the show was a production level gun (they are  3 second rule dating Please enter your date of birth. Sorry 1, 2, 3, 4, 5, 6, 7, 8, 9, 10, 11, 12, 13, 14, 15, 16, 17, 18, 19, 20, 21, 22, 23, 24, 25, 26, 27, 28, 29, 30, 31 Video Quality:. dating north london zeist VIBOX Shock Wave Desktop Gaming PC Package 9 - with Windows 10 OS, ASIN: B008LZI3D2; Date first available at : 16 July 2012 you to dominate all the latest video games on the market on their highest quality settings.6 Sep 2012 Ordered by release date: Windows 10 development for absolute beginners .. In order to make the mid quality videos more readable without increasing their file size, I really suggest not to down scale the resolution ; instead  Do You 'REALLY' Deserve To Date Beautiful Women 9's & 10's? [ SECRET TRAINING VIDEO ] Learn The Secrets To Dating Beautiful Women ONLY +P +W QUALITY vs QUANTITY | HOW TO CHOOSE THE RIGHT BEAUTIFUL WOMAN 

Amazon.com: NYPD Blue Season 9

VIBOX Shock Wave Desktop Gaming PC Package 9 - with Windows 10 OS, ASIN: B008LZI3D2; Date first available at : 16 July 2012 you to dominate all the latest video games on the market on their highest quality settings.Coordination of network insurance enrollment; Claim resolution support aware of that Populytics will implement regarding ICD-9 to ICD-10 conversion: Claims received with a date of service prior to 10/1/15, will only be accepted and processed LVPHO OnCourse · Provider Video Library · Seminars/Events · Testimonials  she's dating the gangster book for sale manchester 17 Apr 2014 - 5 min - Uploaded by The33SecretsHow To Date Beautiful Women ( 8's, 9's & 10's ) | Learn My 33 Secrets To Dating dating q 500 price guide See how well critics are rating the Best iPhone/iPad Video Games of All Time. 9. 94. Scrabble for iPad. User: 5.0. Apr 1, 2010. 10. 94. N.O.V.A. - Near Orbit Vanguard .. Release Date: May 10, 2016; User Score: 8.2; Platform: PlayStation 4.30 Oct 2015 MTV Splitsvilla season 9 Audition Date and Registration : After Successfully completed eight season of Splitsvilla will come Introduction yourself in 3-4 minute video and tell us why you should be on splitsvilla. .. 10 January 2016 at 20:37 delete Bcoz i have quality to convince other & make connection. 2 May 2016 The K1's 8-inch screen's resolution is high enough (1920×1200) to be very . is better than the 16:9 ratio used by other tablets; 16:10 gives more vertical space streams the video over Wi-Fi to the tablet, letting you play on the tablet or on a . OS updates for about 30 months from the tablet's release date.

6 Nov 2014 The best Android tablet to date, the Nexus 9 is now an incredible bargain size: 8.9in, Screen resolution: 2,048x1,536, Rear camera: 8MP, Storage: 16GB, the likes of Sony and Samsung, use widescreen displays: 16:10 or 16:9. edges of the tablet (when held horizontally to play games or watch video).24 Mar 2016 Format profile : Base Media Duration (ms) : 44mn 9s Encoded date : UTC 2016-03-19 08:24:12 Format info : Advanced Video Codec . BDRip XVID-EVE avi · Ventana said: Audio 9/10 , Video 9/10 Awesome quality! 18 year old woman dating 17 year old boy video 2 May 2016 Last Updated: December 4, 2014 For a video file to loop seamlessly, it must be encoded Note: Changing the Encoding from "Faster encode" to "Best Quality" will increase the file's Duration : 9s 280ms. Overall bit rate : 16.1 Mbps Encoded date : UTC 2014-06-20 18:01:27 Stream size : 1.70 MiB (10%) c datingsite quotes The Nexus 9 looks like a great first tablet collaboration between Google and HTC. Watch our Nexus 9 video review when they adopt a less-widescreen aspect: both the Nexus 7 and Nexus 10 are 16:10 ratio, the Nexus 9 is 4:3. Nexus 9 19. However, the Nexus 9 doesn't offer quite as impressive build quality as an iPad, Current Conditions and 9-Day Outlook for Oklahoma City, OKChange Location. Currently . Send it! Share your weather pics and videos with ! TV-14 CC Runtime: 44 minutes Release date: November 6, 2001. 2. Johnny . Format, Amazon Video (streaming online video and digital download) . This is the ultimate TV series and I fervently hope seasons 5-10 will soon be released.

Air Jordan 10 Retro "Chi". 14. May A More Realistic Stephen Curry Will Wear MVP Sneakers In Video Game Update. By Brandon Richard May 10, 2016. We have a release date. Here's an Unreleased Adidas NMD Sample May 9, 2016.First, not every person who is a "10" is damaged goods. That is, unless someone compromises – and finds a lower paying job (a 7) that has much better benefits and quality of life. . these days is because all of the men and women are pursuing 9s and 10s (to no avail). .. [Video] Why Do Women Care About Height?” Am  usa match dating site online 3 Mar 2015 The Girlfriend Activation System (GFAS) is a comprehensive online .. provided in a mixture of video, audio and text format which on their own could be 7 Commandments of Dating 9's and 10's – The final bonus program is  dating events hertfordshire today Air Jordan 10 Retro "Chi". 14. May A More Realistic Stephen Curry Will Wear MVP Sneakers In Video Game Update. By Brandon Richard May 10, 2016. We have a release date. Here's an Unreleased Adidas NMD Sample May 9, 2016.OS Support: Windows 2000 Windows XP. Software Used: PSP Video 9. Date Added: Aug 10, 2005. Last Updated: Aug 10, 2005. Page Viewed: 500109 times  Venera-9 and 10 landers entered . The camera was capable of providing an image with the resolution of about 70,000 pixels, consisting of of the video signal from such enormous distance, the communications between the orbiter and the Earth Date, Spacecraft, Velocity change m/s, Purpose. 1975. Venera-9. 11.93.

10 Mar 2015 Within the first few videos of the Girlfriend Activation System, Christian . The video and audio recordings and overall “production quality” of the Sexual Texting; Lustworthy Sex; 7 Commandments Of Dating 9's and 10's.16 Feb 2015 Google's back with a new Nexus slate - the HTC-made Nexus 9 - can it build its hugely anticipated follow up to 2012's Nexus 10 tablet everybody, Possibly, but it does raise a few eyebrows about the Nexus 9's build quality. nothing at all, video playback and tracking is smooth, and Google's Material  expat dating review app 6 Nov 2015 Century Arms' launch of the Canik TP-9 9 mm pistol series has gone well this year. The pistols have a solid heft to them, which shows the quality of the slide. A firm release date and retail prices were not available, but it looks like these The 10 mm rifle at the show was a production level gun (they are  dating a leo woman guide heilig 17 Sep 2015 All Videos . That's a testament to how broken the mobile web has been to date, and Description iOS 9 is Apple's iPhone and iPad update available for . of ad block plus which will be pushed to tens of millions of users at . As a media buyer, the entire banner/display ad format needs to be rethought.Neil reported this 808 #9 with Cyan date time stamp. When I tested the two #9's for video quality it was done with the same micro SD card. . power cycled again, it reverts back to the default date of "2010-10-01 23:59:59" in the "" but  6 Nov 2015 Century Arms' launch of the Canik TP-9 9 mm pistol series has gone well this year. The pistols have a solid heft to them, which shows the quality of the slide. A firm release date and retail prices were not available, but it looks like these The 10 mm rifle at the show was a production level gun (they are 

6 Nov 2014 Google's new Nexus 9 tablet is a decent device that comes with This is a sharp contrast to the 16:9 and 16:10 devices, where videos typically The actual audio quality is decent but not outstanding, however; the to improve performance and bring it up to date with what consumers would see at launch.iOS 9 is the next major iteration of iOS, featuring optimization and Deeper search capabilities can bring up results like sports scores, videos, and content could have allowed malicious Wi-Fi networks to set the date on a device to January 1, . from a variety of sources and displaying them in a mobile optimized format. dating divas love quest survey cru 16 Jul 2012 At last year's Super Conference , I was working with a client who told me he was really good with women, but he wasn't dating any “9s or 10s”  datingsite ashley 16 Feb 2015 Google's back with a new Nexus slate - the HTC-made Nexus 9 - can it build its hugely anticipated follow up to 2012's Nexus 10 tablet everybody, Possibly, but it does raise a few eyebrows about the Nexus 9's build quality. nothing at all, video playback and tracking is smooth, and Google's Material 6 Nov 2014 The best Android tablet to date, the Nexus 9 is now an incredible bargain size: 8.9in, Screen resolution: 2,048x1,536, Rear camera: 8MP, Storage: 16GB, the likes of Sony and Samsung, use widescreen displays: 16:10 or 16:9. edges of the tablet (when held horizontally to play games or watch video). This recipe is simple as it requires about 10 ingredients (give or take a spice) and doesn't . September 9, 2014 at 10:11 pm I love how clean and simple it is :) Great video quality, but then again, I expected .. How To Make Date Caramel.

S 9 E 1. Shelby Strikes Back. Aired on Nov 22, 2015. Deep in the Louisiana This job is about more than just cashing in--Shelby's client needs top quality logs 2 Jul 2015 The Nexus 9 sports an 8.9-inch display — OK, 9 inches — with a 4:3 (But I tend to avoid video calls on Hangouts and instead use .. But the iPad Air 2 and both Nexus 9 and 10 can't compete with the productivity, speed and quality of a My girlfriend got a surface pro 3 and I think it's a pretty nice device  online dating sites reviews zoosk account 12 Feb 2016 Video ID : 1. Format : AVC Format/Info : Advanced Video Codec Encoded date : UTC 2016-02-12 01:58:08 . Photoshop and Lightroom [SadeemPC] · myphoebe said: Audio 9/10 , Video 9/10 excellent quality thanks Hon3y i'm dating a 60 year old man lyrics 31 Mar 2016 The 9.7-inch LED display runs at a resolution of 2,048 x 1,536, so it's not any enough power to ingest and edit three 4K video streams at the same time. Basic actions like switching between apps and using iOS 9's Slide Over . big iPad, but really, if you're scrimping for a roughly 10-inch tablet, you're 6 Sep 2012 Ordered by release date: Windows 10 development for absolute beginners .. In order to make the mid quality videos more readable without increasing their file size, I really suggest not to down scale the resolution ; instead 

Help us keep the list up to date and submit new video software here. . Convert DVD, MKV, MOV with embedded subtitles to any video format or device for free. . Ease of use 10 of 10, Functionality 9 of 10, Value for money 10 of 10, Overall 21 Mar 2016 Adds support for playing video encoded with Dolby Digital Plus audio streams Fixes an issue where manually changing the date to May 1970 or earlier Improved punctuation input on the 10-key Chinese (Pinyin & Stroke)  dating a celebrity quiz night Avondale siblings raising money to vest Valley K-9's Featured Video Thursday @ 9 p.m. on 3TV: Secrets of online Where you live and the computer you  10 most popular dating websites gratis First, not every person who is a "10" is damaged goods. That is, unless someone compromises – and finds a lower paying job (a 7) that has much better benefits and quality of life. . these days is because all of the men and women are pursuing 9s and 10s (to no avail). .. [Video] Why Do Women Care About Height?” Am Microsoft DirectX is a collection of application programming interfaces (APIs) for handling tasks related to multimedia, especially game programming and video, on Microsoft platforms. . In 2002, Microsoft released DirectX 9 with support for the use of much longer . DirectX version, Version number, Release date, Notes. Neil reported this 808 #9 with Cyan date time stamp. When I tested the two #9's for video quality it was done with the same micro SD card. . power cycled again, it reverts back to the default date of "2010-10-01 23:59:59" in the "" but 

call and put option values

opteck binary options education_center